[NEW] [MINI-HD 1080P] Doctor Strange (2016) ด็อกเตอร์ สเตรนจ์ จอมเวทย์มหากาฬ [พากย์ไทย 5.1+ เสียงอังกฤษ DTS] [บรรยายไทย + อังกฤษ] [MASTER] [MKV] [ONE2UP] | doctor strange จอมเวทย์มหากาฬ 1080p – POLLICELEE

doctor strange จอมเวทย์มหากาฬ 1080p: นี่คือโพสต์ที่เกี่ยวข้องกับหัวข้อนี้

ด็อกเตอร์ สเตรนจ์” บอกเล่าเรื่องราวของศัลยแพทย์ทางประสาทนามสตีเฟ่น สเตรนจ์ ผู้ที่ค้นพบโลกอันลี้ลับของเวทมนตร์และมิติอื่น ๆ หลังจากประสบอุบัติเหตุทางรถยนต์ นำแสดงโดยเบเนดิคท์ คัมเบอร์แบตช์, ชิเวเทล เอ็จอิโอฟอร์, เรเชล แม็คอดัมส์ และไมเคิล สตูลบาร์ก ร่วมด้วยแมด มิคเคลเซ่น และนักแสดงเจ้าของรางวัลออสการ์ ทิลดา สวินตัน เข้าฉายในประเทศไทย 27 ตุลาคมนี้ กำกับโดยสก็อต เดอริคสัน (Sinister, The Exorcism of Emily Rose) ภาพยนตร์จะถ่ายทำในหลากหลายสถานที่ทั่วโลก รวมถึงลอนดอน นิวยอร์ก ฮ่องกง และกาฐมาณฑุ ประเทศเนปาล

ด็อกเตอร์ สเตรนจ์” บอกเล่าเรื่องราวของศัลยแพทย์ทางประสาทนามสตีเฟ่น สเตรนจ์ ผู้ที่ค้นพบโลกอันลี้ลับของเวทมนตร์และมิติอื่น ๆ หลังจากประสบอุบัติเหตุทางรถยนต์ นำแสดงโดยเบเนดิคท์ คัมเบอร์แบตช์, ชิเวเทล เอ็จอิโอฟอร์, เรเชล แม็คอดัมส์ และไมเคิล สตูลบาร์ก ร่วมด้วยแมด มิคเคลเซ่น และนักแสดงเจ้าของรางวัลออสการ์ ทิลดา สวินตัน เข้าฉายในประเทศไทย 27 ตุลาคมนี้ กำกับโดยสก็อต เดอริคสัน (Sinister, The Exorcism of Emily Rose) ภาพยนตร์จะถ่ายทำในหลากหลายสถานที่ทั่วโลก รวมถึงลอนดอน นิวยอร์ก ฮ่องกง และกาฐมาณฑุ ประเทศเนปาล

{MINI Super-HQ}_Doctor.Strange.2016.1080p.BrRip.DTS.x264.THB[Load2up.com].mkv
Format : Matroska
Format version : Version 4 / Version 2
File size : 4.12 GiB
Duration : 1 h 54 min
Overall bit rate : 5 135 kb/s
Movie name : {MINI Super-HQ}_Doctor.Strange.2016.1080p.BrRip.DTS.x264
Encoded date : UTC 2010-02-22 21:41:31
Writing application : mkvmerge v5.9.0 (‘On The Loose’) built on Dec 9 2012 15:37:01
Writing library : libebml v1.3.0 + libmatroska v1.4.0

Video
ID : 1
Format : AVC
Format/Info : Advanced Video Codec
Format profile : [email protected]
Format settings, CABAC : Yes
Format settings, ReFrames : 4 frames
Codec ID : V_MPEG4/ISO/AVC
Duration : 1 h 54 min
Bit rate : 3 585 kb/s
Width : 1 920 pixels
Height : 804 pixels
Display aspect ratio : 2.40:1
Frame rate mode : Constant
Frame rate : 23.976 FPS
Color space : YUV
Chroma subsampling : 4:2:0
Bit depth : 8 bits
Scan type : Progressive
Bits/(Pixel*Frame) : 0.097
Stream size : 2.92 GiB (71%)
Title : {MINI Super-HQ}_Doctor.Strange.2016.1080p.BrRip.DTS.x264
Writing library : x264 core 130 r2273 b3065e6
Language : English
Default : Yes
Forced : No
Color range : Limited
Color primaries : BT.709
Transfer characteristics : BT.709
Matrix coefficients : BT.709

Audio #1
ID : 2
Format : AC-3
Format/Info : Audio Coding 3
Mode extension : CM (complete main)
Format settings, Endianness : Big
Codec ID : A_AC3
Duration : 1 h 54 min
Bit rate mode : Constant
Bit rate : 640 kb/s
Channel(s) : 6 channels
Channel positions : Front: L C R, Side: L R, LFE
Sampling rate : 48.0 kHz
Frame rate : 31.250 FPS (1536 spf)
Bit depth : 16 bits
Compression mode : Lossy
Stream size : 526 MiB (12%)
Title : Thai BluRay Master
Language : Thai
Default : Yes
Forced : Yes

Audio #2
ID : 3
Format : DTS
Format/Info : Digital Theater Systems
Mode : 16
Format settings, Endianness : Big
Codec ID : A_DTS
Duration : 1 h 54 min
Bit rate mode : Constant
Bit rate : 755 kb/s
Channel(s) : 6 channels
Channel positions : Front: L C R, Side: L R, LFE
Sampling rate : 48.0 kHz
Frame rate : 93.750 FPS (512 spf)
Bit depth : 24 bits
Compression mode : Lossy
Stream size : 620 MiB (15%)
Title : English DTS
Language : English
Default : No
Forced : No

Text #1
ID : 4
Format : VobSub
Codec ID : S_VOBSUB
Codec ID/Info : Picture based subtitle format used on DVDs
Title : Thai 480p
Language : Thai
Default : No
Forced : No

Text #2
ID : 5
Format : VobSub
Codec ID : S_VOBSUB
Codec ID/Info : Picture based subtitle format used on DVDs
Title : Thai 720p
Language : Thai
Default : No
Forced : No

Text #3
ID : 6
Format : VobSub
Codec ID : S_VOBSUB
Codec ID/Info : Picture based subtitle format used on DVDs
Title : Thai 1080p BluRay Master
Language : Thai
Default : Yes
Forced : Yes

Text #4
ID : 7
Format : VobSub
Codec ID : S_VOBSUB
Codec ID/Info : Picture based subtitle format used on DVDs
Title : Thai 1080p Angsana
Language : Thai
Default : No
Forced : No

Text #5
ID : 8
Format : VobSub
Codec ID : S_VOBSUB
Codec ID/Info : Picture based subtitle format used on DVDs
Title : Thai 1080p Yellow
Language : Thai
Default : No
Forced : No

Text #6
ID : 9
Format : VobSub
Codec ID : S_VOBSUB
Codec ID/Info : Picture based subtitle format used on DVDs
Title : Thai 1080p Out
Language : Thai
Default : No
Forced : No

Text #7
ID : 10
Format : VobSub
Codec ID : S_VOBSUB
Codec ID/Info : Picture based subtitle format used on DVDs
Title : Thai 1080p BIG
Language : Thai
Default : No
Forced : No

Text #8
ID : 11
Format : VobSub
Codec ID : S_VOBSUB
Codec ID/Info : Picture based subtitle format used on DVDs
Title : Thai 1080p Out [BIG]
Language : Thai
Default : No
Forced : No

READ  หนังต่อสู้,หนังบู๊ 2020 ⭐ กองกำลังพิเศษ ⭐ หนังใหม่ 2020 หนังแอ๊คชั่นมันๆพากย์ไทย | เว็บดูหนังออนไลน | ข้อมูลเกี่ยวกับแฟชั่นอุตสาหกรรมเครื่องหนังล่าสุด

Text #9
ID : 12
Format : PGS
Codec ID : S_HDMV/PGS
Codec ID/Info : Picture based subtitle format used on BDs/HD-DVDs
Title : Thai PGS BluRay Master
Language : Thai
Default : No
Forced : No

Text #10
ID : 13
Format : PGS
Codec ID : S_HDMV/PGS
Codec ID/Info : Picture based subtitle format used on BDs/HD-DVDs
Title : Thai PGS Angsana
Language : Thai
Default : No
Forced : No

Text #11
ID : 14
Format : PGS
Codec ID : S_HDMV/PGS
Codec ID/Info : Picture based subtitle format used on BDs/HD-DVDs
Title : Thai PGS Yellow
Language : Thai
Default : No
Forced : No

Text #12
ID : 15
Format : PGS
Codec ID : S_HDMV/PGS
Codec ID/Info : Picture based subtitle format used on BDs/HD-DVDs
Title : Thai PGS Out
Language : Thai
Default : No
Forced : No

Text #13
ID : 16
Format : VobSub
Codec ID : S_VOBSUB
Codec ID/Info : Picture based subtitle format used on DVDs
Title : English
Language : English
Default : No
Forced : No

[NEW] [MINI-HD 1080P] Doctor Strange (2016) ด็อกเตอร์ สเตรนจ์ จอมเวทย์มหากาฬ [พากย์ไทย 5.1+ เสียงอังกฤษ DTS] [บรรยายไทย + อังกฤษ] [MASTER] [MKV] [ONE2UP] | doctor strange จอมเวทย์มหากาฬ 1080p – POLLICELEE

ด็อกเตอร์ สเตรนจ์” บอกเล่าเรื่องราวของศัลยแพทย์ทางประสาทนามสตีเฟ่น สเตรนจ์ ผู้ที่ค้นพบโลกอันลี้ลับของเวทมนตร์และมิติอื่น ๆ หลังจากประสบอุบัติเหตุทางรถยนต์ นำแสดงโดยเบเนดิคท์ คัมเบอร์แบตช์, ชิเวเทล เอ็จอิโอฟอร์, เรเชล แม็คอดัมส์ และไมเคิล สตูลบาร์ก ร่วมด้วยแมด มิคเคลเซ่น และนักแสดงเจ้าของรางวัลออสการ์ ทิลดา สวินตัน เข้าฉายในประเทศไทย 27 ตุลาคมนี้ กำกับโดยสก็อต เดอริคสัน (Sinister, The Exorcism of Emily Rose) ภาพยนตร์จะถ่ายทำในหลากหลายสถานที่ทั่วโลก รวมถึงลอนดอน นิวยอร์ก ฮ่องกง และกาฐมาณฑุ ประเทศเนปาล

ด็อกเตอร์ สเตรนจ์” บอกเล่าเรื่องราวของศัลยแพทย์ทางประสาทนามสตีเฟ่น สเตรนจ์ ผู้ที่ค้นพบโลกอันลี้ลับของเวทมนตร์และมิติอื่น ๆ หลังจากประสบอุบัติเหตุทางรถยนต์ นำแสดงโดยเบเนดิคท์ คัมเบอร์แบตช์, ชิเวเทล เอ็จอิโอฟอร์, เรเชล แม็คอดัมส์ และไมเคิล สตูลบาร์ก ร่วมด้วยแมด มิคเคลเซ่น และนักแสดงเจ้าของรางวัลออสการ์ ทิลดา สวินตัน เข้าฉายในประเทศไทย 27 ตุลาคมนี้ กำกับโดยสก็อต เดอริคสัน (Sinister, The Exorcism of Emily Rose) ภาพยนตร์จะถ่ายทำในหลากหลายสถานที่ทั่วโลก รวมถึงลอนดอน นิวยอร์ก ฮ่องกง และกาฐมาณฑุ ประเทศเนปาล

{MINI Super-HQ}_Doctor.Strange.2016.1080p.BrRip.DTS.x264.THB[Load2up.com].mkv
Format : Matroska
Format version : Version 4 / Version 2
File size : 4.12 GiB
Duration : 1 h 54 min
Overall bit rate : 5 135 kb/s
Movie name : {MINI Super-HQ}_Doctor.Strange.2016.1080p.BrRip.DTS.x264
Encoded date : UTC 2010-02-22 21:41:31
Writing application : mkvmerge v5.9.0 (‘On The Loose’) built on Dec 9 2012 15:37:01
Writing library : libebml v1.3.0 + libmatroska v1.4.0

Video
ID : 1
Format : AVC
Format/Info : Advanced Video Codec
Format profile : [email protected]
Format settings, CABAC : Yes
Format settings, ReFrames : 4 frames
Codec ID : V_MPEG4/ISO/AVC
Duration : 1 h 54 min
Bit rate : 3 585 kb/s
Width : 1 920 pixels
Height : 804 pixels
Display aspect ratio : 2.40:1
Frame rate mode : Constant
Frame rate : 23.976 FPS
Color space : YUV
Chroma subsampling : 4:2:0
Bit depth : 8 bits
Scan type : Progressive
Bits/(Pixel*Frame) : 0.097
Stream size : 2.92 GiB (71%)
Title : {MINI Super-HQ}_Doctor.Strange.2016.1080p.BrRip.DTS.x264
Writing library : x264 core 130 r2273 b3065e6
Language : English
Default : Yes
Forced : No
Color range : Limited
Color primaries : BT.709
Transfer characteristics : BT.709
Matrix coefficients : BT.709

Audio #1
ID : 2
Format : AC-3
Format/Info : Audio Coding 3
Mode extension : CM (complete main)
Format settings, Endianness : Big
Codec ID : A_AC3
Duration : 1 h 54 min
Bit rate mode : Constant
Bit rate : 640 kb/s
Channel(s) : 6 channels
Channel positions : Front: L C R, Side: L R, LFE
Sampling rate : 48.0 kHz
Frame rate : 31.250 FPS (1536 spf)
Bit depth : 16 bits
Compression mode : Lossy
Stream size : 526 MiB (12%)
Title : Thai BluRay Master
Language : Thai
Default : Yes
Forced : Yes

Audio #2
ID : 3
Format : DTS
Format/Info : Digital Theater Systems
Mode : 16
Format settings, Endianness : Big
Codec ID : A_DTS
Duration : 1 h 54 min
Bit rate mode : Constant
Bit rate : 755 kb/s
Channel(s) : 6 channels
Channel positions : Front: L C R, Side: L R, LFE
Sampling rate : 48.0 kHz
Frame rate : 93.750 FPS (512 spf)
Bit depth : 24 bits
Compression mode : Lossy
Stream size : 620 MiB (15%)
Title : English DTS
Language : English
Default : No
Forced : No

READ  [Update] ดูหนังออนไลน์ ฟรี HD Moviedee24 | yดูหนังออนไลน์ - POLLICELEE

Text #1
ID : 4
Format : VobSub
Codec ID : S_VOBSUB
Codec ID/Info : Picture based subtitle format used on DVDs
Title : Thai 480p
Language : Thai
Default : No
Forced : No

Text #2
ID : 5
Format : VobSub
Codec ID : S_VOBSUB
Codec ID/Info : Picture based subtitle format used on DVDs
Title : Thai 720p
Language : Thai
Default : No
Forced : No

Text #3
ID : 6
Format : VobSub
Codec ID : S_VOBSUB
Codec ID/Info : Picture based subtitle format used on DVDs
Title : Thai 1080p BluRay Master
Language : Thai
Default : Yes
Forced : Yes

Text #4
ID : 7
Format : VobSub
Codec ID : S_VOBSUB
Codec ID/Info : Picture based subtitle format used on DVDs
Title : Thai 1080p Angsana
Language : Thai
Default : No
Forced : No

Text #5
ID : 8
Format : VobSub
Codec ID : S_VOBSUB
Codec ID/Info : Picture based subtitle format used on DVDs
Title : Thai 1080p Yellow
Language : Thai
Default : No
Forced : No

Text #6
ID : 9
Format : VobSub
Codec ID : S_VOBSUB
Codec ID/Info : Picture based subtitle format used on DVDs
Title : Thai 1080p Out
Language : Thai
Default : No
Forced : No

Text #7
ID : 10
Format : VobSub
Codec ID : S_VOBSUB
Codec ID/Info : Picture based subtitle format used on DVDs
Title : Thai 1080p BIG
Language : Thai
Default : No
Forced : No

Text #8
ID : 11
Format : VobSub
Codec ID : S_VOBSUB
Codec ID/Info : Picture based subtitle format used on DVDs
Title : Thai 1080p Out [BIG]
Language : Thai
Default : No
Forced : No

Text #9
ID : 12
Format : PGS
Codec ID : S_HDMV/PGS
Codec ID/Info : Picture based subtitle format used on BDs/HD-DVDs
Title : Thai PGS BluRay Master
Language : Thai
Default : No
Forced : No

Text #10
ID : 13
Format : PGS
Codec ID : S_HDMV/PGS
Codec ID/Info : Picture based subtitle format used on BDs/HD-DVDs
Title : Thai PGS Angsana
Language : Thai
Default : No
Forced : No

Text #11
ID : 14
Format : PGS
Codec ID : S_HDMV/PGS
Codec ID/Info : Picture based subtitle format used on BDs/HD-DVDs
Title : Thai PGS Yellow
Language : Thai
Default : No
Forced : No

Text #12
ID : 15
Format : PGS
Codec ID : S_HDMV/PGS
Codec ID/Info : Picture based subtitle format used on BDs/HD-DVDs
Title : Thai PGS Out
Language : Thai
Default : No
Forced : No

Text #13
ID : 16
Format : VobSub
Codec ID : S_VOBSUB
Codec ID/Info : Picture based subtitle format used on DVDs
Title : English
Language : English
Default : No
Forced : No


REVIEW PHIM PHÙ THỦY TỐI THƯỢNG || DOCTOR STRANGE || SAKURA REVIEW


Chào mừng các bạn đến với kênh SAKURA REVIEW mình sẽ đăng video review phim hay mỗi ngày để các bạn xem nhé, nhớ đăng ký để được xem sớm nhất nhé.!
REVIEW PHIM PHÙ THỦY TỐI THƯỢNG || DOCTOR STRANGE || SAKURA REVIEW
Nội dung phim kể về câu chuyện Bác sĩ Stephen Strange là một chuyên gia phẫu thuật về lĩnh vực thần kinh, anh là người tài năng và giỏi giang nên có sẵn bản tính kiêu ngạo, tuy nhiên vụ tai nạn đã khiến tay anh bị thương nặng và cũng làm anh mất đi sự tự tin vốn có. Từ một bác sĩ giàu có, nổi tiếng, anh trở thành kẻ tuyệt vọng và xa lánh tất cả mọi người. Tuy nhiên anh vẫn cố gắng để có thể cứu chữa đôi bàn tay của mình để có thể tiếp tục sứ mệnh cứu người.
FANPAGE: https://www.facebook.com/SakuraReviewPhim
Chính sách Youtube (https://www.youtube.com/intl/vi/about…)
Luật bản quyền (https://www.youtube.com/intl/vi/about…)
Sử dụng hợp lý (https://www.youtube.com/intl/vi/about…)
Chúng tôi sử dụng theo: Tuyên bố từ chối trách nhiệm bản quyền mục 107 của Đạo luật bản quyền năm 1976. Được phép \”sử dụng hợp lý\” cho các mục đích như phê bình, bình luận, báo cáo tin tức, giảng dạy, học bổng và nghiên cứu.

READ  [Update] Love Under The Full Moon (2021) จันทราลิขิตรัก | loving vincent full movie ซับไทย - POLLICELEE

นอกจากการดูบทความนี้แล้ว คุณยังสามารถดูข้อมูลที่เป็นประโยชน์อื่นๆ อีกมากมายที่เราให้ไว้ที่นี่: ดูเพิ่มเติม

REVIEW PHIM PHÙ THỦY TỐI THƯỢNG || DOCTOR STRANGE || SAKURA REVIEW

ลือ! Doctor Strange 2 เซอร์ไพรส์เพียบ – Major Movie Talk EP.134 [23 กันยายน 2563]


ฟัง Major Movie Talk สด ๆ ทุกวันพุธ เวลา 21.00 22.00 น.
เริ่มคุยข่าวหนังกันสด ๆ ทุกวันพุธ เวลาสามทุ่มตรง ที่ YouTube Major Group
วันนี้มาคุยกันเกี่ยวกับ
The Rock พังประตูบ้าน บอกผมพร้อมจะเป็น Black Adam แล้ว
ทำไม Dune ต้องเป็น 2 ภาค แล้ว ภาค 1 จะจบตรงไหน
Eddie Redmayne ยืนยัน Fantastic Beasts 3 เร่ิมต้นถ่ายแล้ว
5 โปรเจกต์ภาพยนตร์ใหม่จาก GDH Xtraordinary 2021 LINE UP
Robert Pattinson ตรวจ Covid19 Negative แล้ว
ลือ Doctor Strange เซอร์ไพรส์เพียบ
ลือ Spiderman into the Spider Verse
ลือ Ironman จากอีก Timeline
ลือ Star Wars ภาคแยกแมซ วินดู
Joel Kinnaman บอก The Suicide Squad ของ James Gunn เป็นเรท R แบบ แรงๆ
ได้ผกก. your name ฉบับคนแสดงแล้ว
ตัวอย่าง Wonder Woman ญี่ปุ่นมีฉากแอ๊คชั่นเกราะทอง
ภาพชุดใหม่ Black Widow
Download App \”Major Cineplex\” : http://bit.ly/major_superapp
เช็ครอบจองตั๋ว : http://www.majorcineplex.com
ติดตามอัพเดตข่าวสาร ก่อนใครได้ที่
https://www.facebook.com/majorgroup
https://twitter.com/majorgroup
MajorMovieTalk Doctor Strange

ลือ! Doctor Strange 2 เซอร์ไพรส์เพียบ - Major Movie Talk EP.134 [23 กันยายน 2563]

\”KOWLOON KILLERS\” ACTION SHORT 2017 / \”KẺ GIẾT NGƯỜI Ở KOWLOON\” PHIM NGẮN HÀNH ĐỘNG 2017


An action short film we have shot back in 2017:
Directed by Leif Johnson
Action Design by Tien Hoang

Đây là 1 phim ngắn hành động được quay lúc 2017:
Đạo Diễn: Leif Johnson
Thiết Kế Hành Động: Tiến Hoàng

For more information, please visit my:
Website:
http://tienstunts.com/
Facebook Page: Tien Hoang
https://www.facebook.com/tienstunts/
Instagram: Tien Hoang
https://www.instagram.com/tienhoang/
Twitter: Tien Hoang
https://twitter.com/tienhoang099
IMDB: Tien Hoang
https://www.imdb.com/name/nm7535371/?ref_=nmvi_tt
Tienhoang Fight PhimHànhđộng

\

ตัวอย่างทีเซอร์ Doctor Strange (Official ซับไทย HD)


ด็อกเตอร์ สเตรนจ์ – 26 ตุลาคม 2559 ในโรงภาพยนตร์
“ด็อกเตอร์ สเตรนจ์” บอกเล่าเรื่องราวของศัลยแพทย์ทางประสาทนามสตีเฟ่น สเตรนจ์ ผู้ที่ค้นพบโลกอันลี้ลับของเวทมนตร์และมิติอื่นๆหลังจากประสบอุบัติเหตุทางรถยนต์ นำแสดงโดยเบเนดิคท์ คัมเบอร์แบตช์, ชิเวเทล เอ็จอิโอฟอร์, เรเชล แม็คอดัมส์ และไมเคิล สตูลบาร์ก ร่วมด้วยแมด มิคเคลเซ่น และนักแสดงเจ้าของรางวัลออสการ์ ทิลดา สวินตัน เข้าฉายในประเทศไทย 26 ตุลาคมนี้ กำกับโดยสก็อต เดอริคสัน (“Sinister,” “The Exorcism of Emily Rose”) ภาพยนตร์จะถ่ายทำในหลากหลายสถานที่ทั่วโลก รวมถึงลอนดอน, นิวยอร์ก, ฮ่องกง และกาฐมาณฑุ ประเทศเนปาล
สร้างจากตัวละครจากมาร์เวล คอมิกส์ที่ปรากฏตัวครั้งแรกใน \”สเตรนจ์ เทลส์\” ฉบับที่ 101 ที่ออกจำหน่ายในเดือนมิถุนายนปี 1963 “ด็อกเตอร์ สเตรนจ์” เดินตามรอยภาพยนตร์บนจอเงินของมาร์เวล \”ไอรอน แมน\”, \”ดิ อินเครดิเบิ้ล ฮัลค์\”, \”ไอรอน แมน 2\”, \”ธอร์\”, \”กัปตันอเมริกา: อเวนเจอร์ที่ 1\”,” “ดิ อเวนเจอร์ส,” “ไอรอน แมน 3”, “ธอร์: เทพเจ้าสายฟ้าโลกาทมิฬ“, \”กัปตันอเมริกา: มัจจุราชอหังการ”, “การ์เดี้ยนส์ ออฟ เดอะ กาแล็กซี่”, “อเวนเจอร์ส: มหาศึกอัลตรอนถล่มโลก”, “แอนท์แมน” และเรื่องที่กำลังจะเข้าฉาย “กัปตันอเมริกา: ซีวิล วอร์” ( 27 เมษายน 2016), “การ์เดี้ยนส์ ออฟ เดอะ กาแล็กซี่ 2” (พฤษภาคม 2017) และ “ธอร์: แร็กนาร็อค” (พฤศจิกายน 2017)

ตัวอย่างทีเซอร์ Doctor Strange (Official ซับไทย HD)

จอมเวทย์มหากาฬ ภาพยนตร์เต็มรูปแบบ HD (3/3)


จอมเวทย์มหากาฬ ภาพยนตร์เต็มรูปแบบ HD (3/3)
เรื่องราวของ ดร. สตีเฟ่น สเตรนจ์ (Benedict Cumberbatch) หมอศัลยแพทย์ทางประสาทฝีมือดีที่ประสบอุบัติเหตุจนไม่สามารถใช้มือข้างถนัดรักษาคนไข้ได้อีกต่อ แต่แล้วนี่กลับกลายเป็นจุดเริ่มต้น เมื่อเขาค้นพบความสามารถด้านใหม่ ณ ดินแดนห่างไกลในทิเบต ชีวิตใหม่ในฐานะ “ฮีโร่” ผู้ช่วยเหลือผู้คนของ ดร.เสตรนจ์ ได้เริ่มต้นอีกครั้ง แต่ไม่ใช่ในฐานะ “หมอ” อีกต่อไป เมื่อเขากลายเป็นผู้มีความสามารถทางด้านเวทมนต์ และได้นำพลังมาใช้ในการปกป้องผู้คนจากภัยคุกคามจากมิติหรือพลังมืดต่างๆ ได้เป็นทวีคูณ และบทพิสูจน์แรกของเขาในฐานะฮีโร่สายเวทย์ก็กำลังจะเริ่มขึ้นแล้ว…
หลังจากส่ง Deadpool และ Captain America: Civil War ออกมาโลดแล่นบนจอ ก็มาถึงคิวหนังเฟสที่ 3 ของ Marvel อย่าง Doctor Strange ที่นอกจากจะได้หนุ่ม Benedict Cumberbatch ที่ถูกวางตัวให้มารับบท สตีเฟ่น เสตรนจ์ หรือ ดร.สเตรนจ์ ตั้งแต่แรกแล้วนั้น ในส่วนของเนื้อหาก็ได้มีการดัดแปลงให้แตกต่างจากในฉบับ Comic หลายส่วนด้วยกัน หนึ่งในนั้น คือ ตัวละคร The Ancient One อาจารย์ผู้วิเศษของ ดร.สเตรนจ์ ที่ใช้นักแสดงหญิง Tilda Swinton มารับบทแทนต้นฉบับเดิมซึ่งเป็นชายแก่
นอกจากนี้ ยังร่วมด้วยนักแสดงอีกคับคั่งทั้ง Chiwetel Ejiofor, Rachel McAdams, Mads Mikkelsen, Michael Stuhlbarg, Benedict Wong, Scott Adkins และ Amy Landecker กำกับโดย Scott Derrickson
หนังดำเนินเรื่องกระชับ เพราะเนื้อเรื่องไม่มีการผูกปมอะไรมากมาย มีมุกตลกและอารมณ์ขัน (บวกกับความเกรียนและกวนบาทาของตัว ดร.สเตรนจ์) สอดแทรกตามแบบฉบับมาร์เวล ซึ่งเป็นคาแรกเตอร์ที่ถนัดของ Benedict Cumberbatch อยู่แล้ว ส่วน Tilda Swinton ที่มารับบท Ancient One ก็ถ่ายทอดบุคลิกเคร่งขรึมและน่าเกรงขาม ที่มาพร้อมกับแววตาที่เปี่ยมไปด้วยความเมตตาได้อย่างน่าทึ่ง ทำเอาลืมแม่มดขาวแห่งนาร์เนียไปเลย
สำหรับจุดเด่นของหนังก็ต้องยกให้งานภาพ Visual กับ CGI ที่เว่อร์วังอลังการสมราคา ฉากแอ็คชั่นในเรื่องก็เล่นกับ CG เสียส่วนใหญ่ และบางฉากก็ทำให้เวียนหัวได้เหมือนกันนะ แต่ก็สนุกจริงๆ ส่วนในฉากการตอนสู้จริงๆ เน้นการใช้สติปัญญา ความฉลาดหลักแหลมของ ดร.สเตรนจ์ ส่วนฉากในมิติกระจกก็ดูตื่นตาตื่นใจดี เอาเป็นว่าแฟนหนัง Marvel ไม่ควรพลาด

จอมเวทย์มหากาฬ ภาพยนตร์เต็มรูปแบบ HD (3/3)

นอกจากการดูบทความนี้แล้ว คุณยังสามารถดูข้อมูลที่เป็นประโยชน์อื่นๆ อีกมากมายที่เราให้ไว้ที่นี่: ดูบทความเพิ่มเติมในหมวดหมู่Leather

ขอบคุณที่รับชมกระทู้ครับ doctor strange จอมเวทย์มหากาฬ 1080p

Leave a Comment