[NEW] [MINI-HD 1080P] Wreck-It Ralph (2012) ราล์ฟ วายร้ายหัวใจฮีโร่ [พากย์ไทย5.1+อังกฤษDTS] [SubThai+Eng] [บรรยายไทย + อังกฤษ] [MASTER] [MKV] [ONE2UP] [Filefenix] | wreck it ralph ราล์ฟ วายร้ายหัวใจฮีโร่ – POLLICELEE

wreck it ralph ราล์ฟ วายร้ายหัวใจฮีโร่: คุณกำลังดูกระทู้

ราล์ฟ ฝันอยากจะเป็นที่รักใคร่เหมือนอย่างพระเอกในเกมของเขา ปัญหาคือ ไม่มีใครชอบตัวร้าย พวกเขาชอบแต่พระเอก และเมื่อเกมยิงมุมมองบุคคลที่หนึ่งที่ทันสมัยที่สุดได้มาถึงพร้อมกับตัวละคร ผู้แข็งแกร่ง สิบเอกคาลฮูน ราล์ฟเห็นลู่ทางที่จะทำให้เขาได้เป็นฮีโร่และมีความสุขได้ เขาจึงหนีจากเกมของตัวเองเข้าไปในเกมใหม่นี้ ด้วยแผนการสุดเรียบง่าย นั่นก็คือการเอาชนะเกมนี้ทำลายทุกสิ่งที่ขวางหน้า และปลดปล่อยศัตรูสุดร้ายกาจที่ออกมาคุกคามเกมตู้อื่นๆ โดยไม่ตั้งใจ แล้วความหวังเดียวของราล์ฟละ? วาเนโลปี้ วอน ชวีทซ์ บั๊คจอมป่วนจากเกมแข่งรถโกคาร์ทเคลือบลูกกวาด เธออาจจะเป็นคนสอนราล์ฟถึงความหมายของการเป็นคนดี แต่เขาจะรู้ตัวทันหรือไม่ ว่าเขาดีพอที่จะเป็นฮีโร่ ก่อนที่ชะตาชีวิตของเกมตู้ทั้งหมดที่นั่นจะ “จบเกม”

ราล์ฟ ฝันอยากจะเป็นที่รักใคร่เหมือนอย่างพระเอกในเกมของเขา ปัญหาคือ ไม่มีใครชอบตัวร้าย พวกเขาชอบแต่พระเอก และเมื่อเกมยิงมุมมองบุคคลที่หนึ่งที่ทันสมัยที่สุดได้มาถึงพร้อมกับตัวละคร ผู้แข็งแกร่ง สิบเอกคาลฮูน ราล์ฟเห็นลู่ทางที่จะทำให้เขาได้เป็นฮีโร่และมีความสุขได้ เขาจึงหนีจากเกมของตัวเองเข้าไปในเกมใหม่นี้ ด้วยแผนการสุดเรียบง่าย นั่นก็คือการเอาชนะเกมนี้ทำลายทุกสิ่งที่ขวางหน้า และปลดปล่อยศัตรูสุดร้ายกาจที่ออกมาคุกคามเกมตู้อื่นๆ โดยไม่ตั้งใจ แล้วความหวังเดียวของราล์ฟละ? วาเนโลปี้ วอน ชวีทซ์ บั๊คจอมป่วนจากเกมแข่งรถโกคาร์ทเคลือบลูกกวาด เธออาจจะเป็นคนสอนราล์ฟถึงความหมายของการเป็นคนดี แต่เขาจะรู้ตัวทันหรือไม่ ว่าเขาดีพอที่จะเป็นฮีโร่ ก่อนที่ชะตาชีวิตของเกมตู้ทั้งหมดที่นั่นจะ “จบเกม”

Wreck.It.Ralph.2012.1080p.BluRay.DTS.x264[Load2up.com].mkv
Format : Matroska
Format version : Version 4 / Version 2
File size : 2.74 GiB
Duration : 1 h 41 min
Overall bit rate mode : Variable
Overall bit rate : 3 881 kb/s
Movie name : Wreck.It.Ralph.2012.1080p.BluRay.DTS.x264.THM
Encoded date : UTC 2013-03-27 11:12:52
Writing application : mkvmerge v6.0.0 (‘Coming Up For Air’) built on Jan 20 2013 09:52:00
Writing library : libebml v1.3.0 + libmatroska v1.4.0

Video
ID : 1
Format : AVC
Format/Info : Advanced Video Codec
Format profile : [email protected]
Format settings, CABAC : Yes
Format settings, ReFrames : 5 frames
Codec ID : V_MPEG4/ISO/AVC
Duration : 1 h 41 min
Bit rate mode : Variable
Bit rate : 1 890 kb/s
Maximum bit rate : 40.0 Mb/s
Width : 1 920 pixels
Height : 808 pixels
Display aspect ratio : 2.40:1
Frame rate mode : Constant
Frame rate : 23.976 (24000/1001) FPS
Color space : YUV
Chroma subsampling : 4:2:0
Bit depth : 8 bits
Scan type : Progressive
Bits/(Pixel*Frame) : 0.051
Stream size : 1.35 GiB (49%)
Title : Wreck.It.Ralph.2012.1080p.BluRay.DTS.x264.THM
Writing library : x264 core 129 r2245 bc13772
Language : English
Default : Yes
Forced : No

Audio #1
ID : 2
Format : AC-3
Format/Info : Audio Coding 3
Format settings, Endianness : Big
Codec ID : A_AC3
Duration : 1 h 41 min
Bit rate mode : Constant
Bit rate : 384 kb/s
Channel(s) : 6 channels
Channel positions : Front: L C R, Side: L R, LFE
Sampling rate : 48.0 kHz
Frame rate : 31.250 FPS (1536 spf)
Bit depth : 16 bits
Compression mode : Lossy
Stream size : 278 MiB (10%)
Title : DVD MASTER
Language : Thai
Service kind : Complete Main
Default : Yes
Forced : No

Audio #2
ID : 3
Format : DTS
Format/Info : Digital Theater Systems
Mode : 16
Format settings, Endianness : Big
Codec ID : A_DTS
Duration : 1 h 41 min
Bit rate mode : Constant
Bit rate : 1 509 kb/s
Channel(s) : 6 channels
Channel positions : Front: L C R, Side: L R, LFE
Sampling rate : 48.0 kHz
Frame rate : 93.750 FPS (512 spf)
Bit depth : 24 bits
Compression mode : Lossy
Stream size : 1.07 GiB (39%)
Title : ENG DTS
Language : English
Default : No
Forced : No

READ  [Update] Shrek 2 (2004) เชร็ค 2 ดูหนังออนไลน์ ใหม่ 2021 : เต็มเรื่อง | การ์ตูน เชร็ค 2 - POLLICELEE

Text #1
ID : 4
Format : VobSub
Codec ID : S_VOBSUB
Codec ID/Info : Picture based subtitle format used on DVDs
Title : [SUB THAI 480P FROM DVD MASTER] Freesia UPC
Language : Thai
Default : Yes
Forced : No

Text #2
ID : 5
Format : VobSub
Codec ID : S_VOBSUB
Codec ID/Info : Picture based subtitle format used on DVDs
Title : [SUB THAI 480P FROM DVD MASTER] Freesia UPC UNDER
Language : Thai
Default : No
Forced : No

Text #3
ID : 6
Format : VobSub
Codec ID : S_VOBSUB
Codec ID/Info : Picture based subtitle format used on DVDs
Title : [SUB THAI FROM DVD MASTER]
Language : Thai
Default : No
Forced : No

Text #4
ID : 7
Format : VobSub
Codec ID : S_VOBSUB
Codec ID/Info : Picture based subtitle format used on DVDs
Title : [SUB THAI 1080P FROM DVD MASTER] Angsana UPC
Language : Thai
Default : No
Forced : No

Text #5
ID : 8
Format : PGS
Codec ID : S_HDMV/PGS
Codec ID/Info : Picture based subtitle format used on BDs/HD-DVDs
Title : THAI PGS TH Sarabun
Language : Thai
Default : No
Forced : No

Text #6
ID : 9
Format : PGS
Codec ID : S_HDMV/PGS
Codec ID/Info : Picture based subtitle format used on BDs/HD-DVDs
Title : THAI PGS Angsana UPC
Language : Thai
Default : No
Forced : No

Text #7
ID : 10
Format : UTF-8
Codec ID : S_TEXT/UTF8
Codec ID/Info : UTF-8 Plain Text
Title : ENG SRT
Language : English
Default : No
Forced : No

[NEW] [MINI-HD 1080P] Wreck-It Ralph (2012) ราล์ฟ วายร้ายหัวใจฮีโร่ [พากย์ไทย5.1+อังกฤษDTS] [SubThai+Eng] [บรรยายไทย + อังกฤษ] [MASTER] [MKV] [ONE2UP] [Filefenix] | wreck it ralph ราล์ฟ วายร้ายหัวใจฮีโร่ – POLLICELEE

ราล์ฟ ฝันอยากจะเป็นที่รักใคร่เหมือนอย่างพระเอกในเกมของเขา ปัญหาคือ ไม่มีใครชอบตัวร้าย พวกเขาชอบแต่พระเอก และเมื่อเกมยิงมุมมองบุคคลที่หนึ่งที่ทันสมัยที่สุดได้มาถึงพร้อมกับตัวละคร ผู้แข็งแกร่ง สิบเอกคาลฮูน ราล์ฟเห็นลู่ทางที่จะทำให้เขาได้เป็นฮีโร่และมีความสุขได้ เขาจึงหนีจากเกมของตัวเองเข้าไปในเกมใหม่นี้ ด้วยแผนการสุดเรียบง่าย นั่นก็คือการเอาชนะเกมนี้ทำลายทุกสิ่งที่ขวางหน้า และปลดปล่อยศัตรูสุดร้ายกาจที่ออกมาคุกคามเกมตู้อื่นๆ โดยไม่ตั้งใจ แล้วความหวังเดียวของราล์ฟละ? วาเนโลปี้ วอน ชวีทซ์ บั๊คจอมป่วนจากเกมแข่งรถโกคาร์ทเคลือบลูกกวาด เธออาจจะเป็นคนสอนราล์ฟถึงความหมายของการเป็นคนดี แต่เขาจะรู้ตัวทันหรือไม่ ว่าเขาดีพอที่จะเป็นฮีโร่ ก่อนที่ชะตาชีวิตของเกมตู้ทั้งหมดที่นั่นจะ “จบเกม”

ราล์ฟ ฝันอยากจะเป็นที่รักใคร่เหมือนอย่างพระเอกในเกมของเขา ปัญหาคือ ไม่มีใครชอบตัวร้าย พวกเขาชอบแต่พระเอก และเมื่อเกมยิงมุมมองบุคคลที่หนึ่งที่ทันสมัยที่สุดได้มาถึงพร้อมกับตัวละคร ผู้แข็งแกร่ง สิบเอกคาลฮูน ราล์ฟเห็นลู่ทางที่จะทำให้เขาได้เป็นฮีโร่และมีความสุขได้ เขาจึงหนีจากเกมของตัวเองเข้าไปในเกมใหม่นี้ ด้วยแผนการสุดเรียบง่าย นั่นก็คือการเอาชนะเกมนี้ทำลายทุกสิ่งที่ขวางหน้า และปลดปล่อยศัตรูสุดร้ายกาจที่ออกมาคุกคามเกมตู้อื่นๆ โดยไม่ตั้งใจ แล้วความหวังเดียวของราล์ฟละ? วาเนโลปี้ วอน ชวีทซ์ บั๊คจอมป่วนจากเกมแข่งรถโกคาร์ทเคลือบลูกกวาด เธออาจจะเป็นคนสอนราล์ฟถึงความหมายของการเป็นคนดี แต่เขาจะรู้ตัวทันหรือไม่ ว่าเขาดีพอที่จะเป็นฮีโร่ ก่อนที่ชะตาชีวิตของเกมตู้ทั้งหมดที่นั่นจะ “จบเกม”

READ  [Update] Rush Hour 2 (2001) คู่ใหญ่ฟัดเต็มสปีด ภาค 2 | ดู หนัง คู่ ใหญ่ ฟัด เต็ม ส ปี ด 2 - POLLICELEE

Wreck.It.Ralph.2012.1080p.BluRay.DTS.x264[Load2up.com].mkv
Format : Matroska
Format version : Version 4 / Version 2
File size : 2.74 GiB
Duration : 1 h 41 min
Overall bit rate mode : Variable
Overall bit rate : 3 881 kb/s
Movie name : Wreck.It.Ralph.2012.1080p.BluRay.DTS.x264.THM
Encoded date : UTC 2013-03-27 11:12:52
Writing application : mkvmerge v6.0.0 (‘Coming Up For Air’) built on Jan 20 2013 09:52:00
Writing library : libebml v1.3.0 + libmatroska v1.4.0

Video
ID : 1
Format : AVC
Format/Info : Advanced Video Codec
Format profile : [email protected]
Format settings, CABAC : Yes
Format settings, ReFrames : 5 frames
Codec ID : V_MPEG4/ISO/AVC
Duration : 1 h 41 min
Bit rate mode : Variable
Bit rate : 1 890 kb/s
Maximum bit rate : 40.0 Mb/s
Width : 1 920 pixels
Height : 808 pixels
Display aspect ratio : 2.40:1
Frame rate mode : Constant
Frame rate : 23.976 (24000/1001) FPS
Color space : YUV
Chroma subsampling : 4:2:0
Bit depth : 8 bits
Scan type : Progressive
Bits/(Pixel*Frame) : 0.051
Stream size : 1.35 GiB (49%)
Title : Wreck.It.Ralph.2012.1080p.BluRay.DTS.x264.THM
Writing library : x264 core 129 r2245 bc13772
Language : English
Default : Yes
Forced : No

Audio #1
ID : 2
Format : AC-3
Format/Info : Audio Coding 3
Format settings, Endianness : Big
Codec ID : A_AC3
Duration : 1 h 41 min
Bit rate mode : Constant
Bit rate : 384 kb/s
Channel(s) : 6 channels
Channel positions : Front: L C R, Side: L R, LFE
Sampling rate : 48.0 kHz
Frame rate : 31.250 FPS (1536 spf)
Bit depth : 16 bits
Compression mode : Lossy
Stream size : 278 MiB (10%)
Title : DVD MASTER
Language : Thai
Service kind : Complete Main
Default : Yes
Forced : No

Audio #2
ID : 3
Format : DTS
Format/Info : Digital Theater Systems
Mode : 16
Format settings, Endianness : Big
Codec ID : A_DTS
Duration : 1 h 41 min
Bit rate mode : Constant
Bit rate : 1 509 kb/s
Channel(s) : 6 channels
Channel positions : Front: L C R, Side: L R, LFE
Sampling rate : 48.0 kHz
Frame rate : 93.750 FPS (512 spf)
Bit depth : 24 bits
Compression mode : Lossy
Stream size : 1.07 GiB (39%)
Title : ENG DTS
Language : English
Default : No
Forced : No

Text #1
ID : 4
Format : VobSub
Codec ID : S_VOBSUB
Codec ID/Info : Picture based subtitle format used on DVDs
Title : [SUB THAI 480P FROM DVD MASTER] Freesia UPC
Language : Thai
Default : Yes
Forced : No

READ  [Update] How to เซ็ทผมบ๊อบให้สวยตลอดวัน (at Home) | เซ็ ท ผม ประ บ่า - POLLICELEE

Text #2
ID : 5
Format : VobSub
Codec ID : S_VOBSUB
Codec ID/Info : Picture based subtitle format used on DVDs
Title : [SUB THAI 480P FROM DVD MASTER] Freesia UPC UNDER
Language : Thai
Default : No
Forced : No

Text #3
ID : 6
Format : VobSub
Codec ID : S_VOBSUB
Codec ID/Info : Picture based subtitle format used on DVDs
Title : [SUB THAI FROM DVD MASTER]
Language : Thai
Default : No
Forced : No

Text #4
ID : 7
Format : VobSub
Codec ID : S_VOBSUB
Codec ID/Info : Picture based subtitle format used on DVDs
Title : [SUB THAI 1080P FROM DVD MASTER] Angsana UPC
Language : Thai
Default : No
Forced : No

Text #5
ID : 8
Format : PGS
Codec ID : S_HDMV/PGS
Codec ID/Info : Picture based subtitle format used on BDs/HD-DVDs
Title : THAI PGS TH Sarabun
Language : Thai
Default : No
Forced : No

Text #6
ID : 9
Format : PGS
Codec ID : S_HDMV/PGS
Codec ID/Info : Picture based subtitle format used on BDs/HD-DVDs
Title : THAI PGS Angsana UPC
Language : Thai
Default : No
Forced : No

Text #7
ID : 10
Format : UTF-8
Codec ID : S_TEXT/UTF8
Codec ID/Info : UTF-8 Plain Text
Title : ENG SRT
Language : English
Default : No
Forced : No


Wreck it Ralph 2 trailer but there’s more pancakes


I have no self control.

นอกจากการดูบทความนี้แล้ว คุณยังสามารถดูข้อมูลที่เป็นประโยชน์อื่นๆ อีกมากมายที่เราให้ไว้ที่นี่: ดูเพิ่มเติม

Wreck it Ralph 2 trailer but there's more pancakes

Wreck-It Ralph: Vanellope Becomes Princess Clip (HD)


After winning the race, Vanellope finally shows the audience her true identity in Sugar Rush.
All rights to this video go to Disney.

Wreck-It Ralph: Vanellope Becomes Princess Clip (HD)

นิทานเรื่อง ลูกหมู 3 ตัว


นิทานเรื่อง หมูน้อยสามตัว
เสียงพากษ์อัดจากโทรศัพท์นะ อาจไม่เพราะ
วิดีโอต้นฉบับ http://www.youtube.com/watch?v=Olo923T2HQ4
เพลงประกอบ ลั้นลา ชิน ชินวุฒ feat. แบงค์ โอปอล์

นิทานเรื่อง ลูกหมู 3 ตัว

สปอย Wreck-it Ralph – ราล์ฟ วายร้ายหัวใจฮีโร่


สปอยล์หนังอนิเมชั่น Wreckit Ralph ราล์ฟ วายร้ายหัวใจฮีโร่

สปอย Wreck-it Ralph - ราล์ฟ วายร้ายหัวใจฮีโร่

Ralph Breaks the Internet: Wreck-It Ralph 2 – Disney Princess Challenge “เพลงอะไรอ่ะ!


Ralph Breaks the Internet \”ราล์ฟตะลุยโลกอินเทอร์เน็ต วายร้ายหัวใจฮีโร่ 2\”
เจ้าหญิงดิสนีย์ ซูเปอร์ฮีโร่ และแม้กระทั่งเจ้าลาอมทุกข์ ต่างรวมตัวเพื่อช่วยราล์ฟ วายร้ายหัวใจฮีโร่ ตะลุยโลกอินเทอร์เน็ตไปหาอะไหล่สำหรับการรักษาเกมส์ชูการ์ รัช ของเพื่อนซี้อย่างยัยว๊อบแว๊บเวเนโลปี้ให้คงอยู่ได้
อัพเดทวันฉายจริงได้ที่ http://www.majorcineplex.com/movie
หมวดหมู่ : ผจญภัย / แฟนตาซี
ผู้กำกับ : ฟิล จอห์นตัน, ริช มัวร์
นักแสดง : คริสเตียน เบล, แมนดี้ มัวร์, ออลี่ คราวัลโฮ
Download App \”Major Movie Plus\” http://www.majorcineplex.com/app
เช็ครอบจองตั๋ว http://www.majorcineplex.com
ติดตามอัพเดตข่าวสาร ก่อนใครได้ที่
https://www.facebook.com/majorgroup
https://twitter.com/majorgroup
RalphBreakstheInternet ราล์ฟตะลุยโลกอินเทอร์เน็ต วายร้ายหัวใจฮีโร่2

Ralph Breaks the Internet: Wreck-It Ralph 2 - Disney Princess Challenge “เพลงอะไรอ่ะ!

นอกจากการดูบทความนี้แล้ว คุณยังสามารถดูข้อมูลที่เป็นประโยชน์อื่นๆ อีกมากมายที่เราให้ไว้ที่นี่: ดูวิธีอื่นๆLeather

ขอบคุณมากสำหรับการดูหัวข้อโพสต์ wreck it ralph ราล์ฟ วายร้ายหัวใจฮีโร่

Leave a Comment